Chargement...

Film Vivre C'est Résister (2020) de Apo W. Bazidi VOstFR [WEBRiP]

Discussion dans 'Documentaires et films' créé par gorekhaa, 24 Octobre 2020.

  1. gorekhaa
    Offline

    gorekhaa✘☠[G.R.K.]☢Ⓐ★ Membre actif

    103
    9
    7
    Fev 2012
    United States
  2. libertaire, anarchiste, féministe, internationaliste, situationniste, auto-gestionnaire, individualiste, synthèsiste, progressite, révolutionnaire, autonome, anti-fasciste, anti-autoritaire
    Vivre C'est résister
    [​IMG]

    [​IMG]
    Réalisateur : Apo W. Bazidi
    Genre : Documentaire
    Durée : 1h 13min
    Date de sortie : 03 Avril 2017
    Titre original : Resistance Is Life
    Critiques Spectateurs : 4.8/5
    Plus d'information sur themoviedb :
    Resistance Is Life

    [​IMG]
    Dans un camp de réfugiés situé à la frontière turco-syrienne, une fillette, Evlin symbolise la résistance de sa ville natale de Kobané contre les combattants d'ISIS. Au beau milieu de la guerre se déroulant en Syrie, l'histoire d'Evlin redonne espoir.

    [​IMG]


    [​IMG]
    Qualité : WEBRIP
    Format : MKV
    Langue : [​IMG] Anglais
    Sous-titre : [​IMG] Truefrench
    Codec vidéo : Mpeg-4 AVC à 1091kbps
    Codec audio : AAC à 128kbps
    NFO :
    Code:
    Format                      : Matroska
    Format version              : Version 4
    File size                   : 636 MiB
    Duration                    : 1 h 12 min
    Overall bit rate            : 1 221 kb/s
    Encoded date                : UTC 2020-10-24 02:53:18
    Writing application         : mkvmerge v48.0.0 ('Fortress Around Your Heart') 64-bit
    Writing library             : libebml v1.4.0 + libmatroska v1.6.0
    
    Video
    ID                          : 1
    Format                      : AVC
    Format/Info                 : Advanced Video Codec
    Format profile              : Main@L3.1
    Format settings             : CABAC / 3 Ref Frames
    Format settings, CABAC      : Yes
    Format settings, Reference  : 3 frames
    Codec ID                    : V_MPEG4/ISO/AVC
    Duration                    : 1 h 12 min
    Bit rate                    : 1 091 kb/s
    Width                       : 960 pixels
    Height                      : 540 pixels
    Display aspect ratio        : 16:9
    Frame rate mode             : Constant
    Frame rate                  : 23.976 (24000/1001) FPS
    Color space                 : YUV
    Chroma subsampling          : 4:2:0
    Bit depth                   : 8 bits
    Scan type                   : Progressive
    Bits/(Pixel*Frame)          : 0.088
    Stream size                 : 568 MiB (89%)
    Language                    : Turkish
    Default                     : Yes
    Forced                      : Yes
    
    Audio
    ID                          : 2
    Format                      : AAC LC
    Format/Info                 : Advanced Audio Codec Low Complexity
    Codec ID                    : A_AAC-2
    Duration                    : 1 h 12 min
    Bit rate                    : 128 kb/s
    Channel(s)                  : 2 channels
    Channel layout              : L R
    Sampling rate               : 48.0 kHz
    Frame rate                  : 46.875 FPS (1024 SPF)
    Compression mode            : Lossy
    Stream size                 : 66.7 MiB (10%)
    Language                    : Turkish
    Default                     : Yes
    Forced                      : Yes
    
    Text
    ID                          : 3
    Format                      : UTF-8
    Codec ID                    : S_TEXT/UTF8
    Codec ID/Info               : UTF-8 Plain Text
    Duration                    : 1 h 10 min
    Bit rate                    : 60 b/s
    Count of elements           : 775
    Stream size                 : 31.3 KiB (0%)
    Language                    : French
    Default                     : Yes
    Forced                      : Yes
    

    [​IMG]
    Découpage : Aucun
    Tailles des fichiers : 1 x 652 Mo
    Nom de la release : Resistance Is Life (A.W. Bazidi - 2020) VOstFR WEBRiP [G.R.K.]
    Taille totale : 652 Mo
    Hébergeur :
    [​IMG]
    multiup.org

     
    Ungovernable apprécie ceci.
  3. gorekhaa
    Offline

    gorekhaa✘☠[G.R.K.]☢Ⓐ★ Membre actif

    103
    9
    7
    Fev 2012
    United States
  4. libertaire, anarchiste, féministe, internationaliste, situationniste, auto-gestionnaire, individualiste, synthèsiste, progressite, révolutionnaire, autonome, anti-fasciste, anti-autoritaire
    Un film bouleversant, témoignage en forme de sourire permanent qui ne laissera personne indifférent!
    A ajouter au cycle Kurde...
     
  5. lucifer
    Offline

    luciferMembre du forum Membre actif

    429
    66
    0
    Sept 2016
    Homme
  6. allpower
    Offline

    allpower  Comité auto-gestion Membre actif

    9 078
    1 538
    4,718
    Nov 2012
Chargement...

Les membres qui ont lu cette discussion dans le dernier mois (Total: 10)

  1. gorekhaa
  2. lucifer
  3. allpower
  4. slvbhc
  5. Ungovernable
  6. Air-V
  7. Baïkal
  8. Gaston.
  9. Anarkocom
  10. Cyrrus