Chargement...

Documentaire Highway To Hell, The Battle For Mosul (2017) de Matt Brown VOstFR [WEBRiP]

Discussion dans 'Documentaires et films' créé par gorekhaa, 24 Octobre 2020.

  1. gorekhaa
    Offline

    gorekhaa✘☠[G.R.K.]☢Ⓐ★ Membre actif

    103
    9
    7
    Fev 2012
    United States
  2. libertaire, anarchiste, féministe, internationaliste, situationniste, auto-gestionnaire, individualiste, synthèsiste, progressite, révolutionnaire, autonome, anti-fasciste, anti-autoritaire
    Highway To Hell, The Battle For Mosul
    [​IMG]

    [​IMG]
    Réalisateur : Matt Brown
    Avec : Matt Brown, David Kilcullen, David Petraeus
    Genre : Documentaire
    Durée : 42min
    Date de sortie : 11 November 2017 (Iraq)
    Highway to Hell: The Battle of Mosul

    [​IMG]
    Deux cinéastes racontent l'histoire de l'assaut irakien contre Mossoul: "la plus grande bataille du siècle jusqu'à présent". Le résultat de la bataille aura un impact énorme sur l'avenir du terrorisme dans le monde.

    [​IMG]


    [​IMG]
    Qualité : WEBRIP
    Format : MKV
    Langue : [​IMG] Anglais
    Sous-titre : [​IMG] Truefrench
    NFO :
    Code:
    Format                      : Matroska
    Format version              : Version 4
    File size                   : 424 MiB
    Duration                    : 42 min 14 s
    Overall bit rate            : 1 402 kb/s
    Encoded date                : UTC 2020-10-24 15:13:34
    Writing application         : mkvmerge v51.0.0 ('I Wish') 64-bit
    Writing library             : libebml v1.4.0 + libmatroska v1.6.2
    
    Video
    ID                          : 2
    Format                      : AVC
    Format/Info                 : Advanced Video Codec
    Format profile              : High@L3.1
    Format settings             : CABAC / 3 Ref Frames
    Format settings, CABAC      : Yes
    Format settings, Reference  : 3 frames
    Codec ID                    : V_MPEG4/ISO/AVC
    Duration                    : 42 min 14 s
    Bit rate                    : 1 272 kb/s
    Width                       : 960 pixels
    Height                      : 540 pixels
    Display aspect ratio        : 16:9
    Frame rate mode             : Constant
    Frame rate                  : 25.000 FPS
    Color space                 : YUV
    Chroma subsampling          : 4:2:0
    Bit depth                   : 8 bits
    Scan type                   : Progressive
    Bits/(Pixel*Frame)          : 0.098
    Stream size                 : 384 MiB (91%)
    Language                    : English
    Default                     : Yes
    Forced                      : Yes
    
    Audio
    ID                          : 3
    Format                      : AAC LC
    Format/Info                 : Advanced Audio Codec Low Complexity
    Codec ID                    : A_AAC-2
    Duration                    : 42 min 14 s
    Bit rate                    : 128 kb/s
    Channel(s)                  : 2 channels
    Channel layout              : L R
    Sampling rate               : 48.0 kHz
    Frame rate                  : 46.875 FPS (1024 SPF)
    Compression mode            : Lossy
    Stream size                 : 38.7 MiB (9%)
    Language                    : English
    Default                     : Yes
    Forced                      : Yes
    
    Text
    ID                          : 1
    Format                      : UTF-8
    Codec ID                    : S_TEXT/UTF8
    Codec ID/Info               : UTF-8 Plain Text
    Duration                    : 41 min 36 s
    Bit rate                    : 78 b/s
    Count of elements           : 519
    Stream size                 : 23.9 KiB (0%)
    Language                    : French
    Default                     : Yes
    Forced                      : Yes
    

    [​IMG]
    Nom de la release : Highway To Hell - The Battle For Mosul (M. Brown - 2017) VOstFR WEBRiP [G.R.K.]
    Taille totale : 435 Mo
    Hébergeur :
    [​IMG]
    multiup.org

     
  3. lucifer
    Offline

    luciferMembre du forum Membre actif

    429
    66
    0
    Sept 2016
    Homme
  4. allpower
    Offline

    allpower  Comité auto-gestion Membre actif

    9 078
    1 538
    4,718
    Nov 2012
    Merci pour tous tes partages !
     
  5. Air-V
    Offline

    Air-VMembre du forum

    28
    0
    0
    Sept 2018
    France
Chargement...

Les membres qui ont lu cette discussion dans le dernier mois (Total: 8)

  1. gorekhaa
  2. lucifer
  3. allpower
  4. slvbhc
  5. Air-V
  6. le basque méca
  7. Bisounour
  8. Anarkocom