Chargement...

Film City Of Ghosts (2017) de Matthew Heineman VOstFR [WEBRIP]

Discussion dans 'Documentaires et films' créé par gorekhaa, 24 Octobre 2020.

  1. gorekhaa
    Offline

    gorekhaa✘☠[G.R.K.]☢Ⓐ★ Membre actif

    103
    9
    7
    Fev 2012
    United States
  2. libertaire, anarchiste, féministe, internationaliste, situationniste, auto-gestionnaire, individualiste, synthèsiste, progressite, révolutionnaire, autonome, anti-fasciste, anti-autoritaire
    City Of Ghosts
    [​IMG]

    [​IMG]
    Réalisateur : Matthew Heineman
    Avec : Abdelaziz Alhamza, Mohamad Almusari, Hamoud Almousa
    Genre : Documentaire
    Durée : 1h 32min
    Date de sortie : 1 December 2017
    Titre original : City Of Ghosts
    City of Ghosts

    [​IMG]
    City of Ghosts, véritable thriller international, expose un nouveau type de guerre : une bataille médiatique d’idées, un combat pour les cœurs et les esprits, pour les clics et le nombre de vues sur internet. Il suit le périple de Raqqa is being Slaughtered Silently (« Raqqa est assassiné en silence »), une poignée de journalistes citoyens anonymes qui se sont regroupés après la prise de leur pays par l’État Islamique en 2014. Avec un accès étonnant et profondément personnel, c'est l'histoire de ce groupe de courageux citoyens, qui, plutôt que s’exiler et fuir, affrontent cette réalité chaotique et risquent leur vie pour résister face à l’un des plus grands maux dans le monde aujourd’hui.

    [​IMG]


    [​IMG]
    Qualité : WEBRIP
    Format : MKV
    Langue : [​IMG] Anglais
    Sous-titre : [​IMG] Truefrench
    NFO :
    Code:
    Format                      : Matroska
    Format version              : Version 4
    File size                   : 615 MiB
    Duration                    : 1 h 32 min
    Overall bit rate            : 934 kb/s
    Encoded date                : UTC 2020-10-24 12:32:29
    Writing application         : mkvmerge v48.0.0 ('Fortress Around Your Heart') 64-bit
    Writing library             : libebml v1.4.0 + libmatroska v1.6.0
    
    Video
    ID                          : 2
    Format                      : AVC
    Format/Info                 : Advanced Video Codec
    Format profile              : Main@L3.1
    Format settings             : CABAC / 3 Ref Frames
    Format settings, CABAC      : Yes
    Format settings, Reference  : 3 frames
    Codec ID                    : V_MPEG4/ISO/AVC
    Duration                    : 1 h 32 min
    Bit rate                    : 803 kb/s
    Width                       : 960 pixels
    Height                      : 540 pixels
    Display aspect ratio        : 16:9
    Frame rate mode             : Constant
    Frame rate                  : 23.976 (24000/1001) FPS
    Color space                 : YUV
    Chroma subsampling          : 4:2:0
    Bit depth                   : 8 bits
    Scan type                   : Progressive
    Bits/(Pixel*Frame)          : 0.065
    Stream size                 : 529 MiB (86%)
    Language                    : English
    Default                     : Yes
    Forced                      : Yes
    
    Audio
    ID                          : 3
    Format                      : AAC LC
    Format/Info                 : Advanced Audio Codec Low Complexity
    Codec ID                    : A_AAC-2
    Duration                    : 1 h 32 min
    Bit rate                    : 128 kb/s
    Channel(s)                  : 2 channels
    Channel layout              : L R
    Sampling rate               : 48.0 kHz
    Frame rate                  : 46.875 FPS (1024 SPF)
    Compression mode            : Lossy
    Stream size                 : 84.3 MiB (14%)
    Language                    : English
    Default                     : Yes
    Forced                      : Yes
    
    Text
    ID                          : 1
    Format                      : UTF-8
    Codec ID                    : S_TEXT/UTF8
    Codec ID/Info               : UTF-8 Plain Text
    Duration                    : 1 h 28 min
    Bit rate                    : 50 b/s
    Count of elements           : 734
    Stream size                 : 32.8 KiB (0%)
    Language                    : French
    Default                     : Yes
    Forced                      : Yes
    

    [​IMG]
    Nom de la release : City Of Ghosts (M. Heineman - 2017) VOstFR WEBRiP [G.R.K.]
    Taille totale : 630 Mo
    Hébergeur :
    [​IMG]
    multiup.org

     
  3. allpower
    En ligne

    allpower  Comité auto-gestion Membre actif

    9 082
    1 539
    4,718
    Nov 2012
Chargement...

Les membres qui ont lu cette discussion dans le dernier mois (Total: 6)

  1. gorekhaa
  2. Blek
  3. lucifer
  4. allpower
  5. le basque méca
  6. Anarkocom